locked
Widows Media Player 無法撥放 RRS feed

所有回覆

  • 請問是哪一種影片,因為不知道是不是檔案格式不符所以才會無法撥放


    小白技術沒關係 金錢的力量 決定服務的高低
    • 已編輯 Kill Apple 2011年11月29日 上午 07:16
    2011年11月29日 上午 07:16
  • HI:
    請使用MediaInfo分析開影片使用何種codec,方便的話把結果貼上來
    http://mediainfo.sourceforge.net

    謝謝

    2011年11月29日 上午 09:02
  • 您好!

    可以試一下下面任一套解碼器看看

    http://shark007.net/win7codecs.html

    http://www.codecguide.com/

    2011年11月29日 上午 09:19
    版主
  • 您好

    1. 參考

    一點通 - 在 Windows 7 播放視訊 DVD 時,會無法播放並出現:「尚未安裝相容的 DVD 解碼器」訊息 (MVP 撰寫)

    http://support.microsoft.com/kb/2199806/zh-tw

    2. 使用 KMPlayer 播放


    歡迎參觀我的Blog.NET菜鳥自救會
    2011年11月29日 上午 09:20
  • 1. 使用 http://support.microsoft.com/kb/2199806/zh-tw 指示

    失敗

    2. 也使用格式工廠, any video converter轉換 .asx or .asf 為 .avi, 但是轉換失敗

    3.  使用Kmplayer播放 .asf, 看不到影像

    4. 使用MediaInfo顯示


    General
    Complete name                            : D:\us4.asx
    Format                                   : Windows Media
    File size                                : 5.12 MiB
    Duration                                 : 26s 832ms
    Overall bit rate mode                    : Variable
    Overall bit rate                         : 1 600 Kbps
    Maximum Overall bit rate                 : 1 581 Kbps
    Encoded date                             : UTC 2011-11-22 09:04:43.609

    Video
    ID                                       : 1
    Format                                   : TDSC
    Codec ID                                 : TDSC
    Duration                                 : 26s 833ms
    Bit rate mode                            : Variable
    Bit rate                                 : 1 524 Kbps
    Width                                    : 1 024 pixels
    Height                                   : 768 pixels
    Display aspect ratio                     : 4:3
    Frame rate                               : 30.000 fps
    Bit depth                                : 8 bits
    Bits/(Pixel*Frame)                       : 0.065
    Stream size                              : 4.87 MiB (95%)
    Language                                 : Chinese (TW)

    Audio
    ID                                       : 2
    Format                                   : MPEG Audio
    Format version                           : Version 1
    Format profile                           : Layer 3
    Mode                                     : Joint stereo
    Mode extension                           : MS Stereo
    Codec ID                                 : 55
    Codec ID/Hint                            : MP3
    Duration                                 : 26s 831ms
    Bit rate mode                            : Constant
    Bit rate                                 : 32.0 Kbps
    Channel(s)                               : 2 channels
    Sampling rate                            : 44.1 KHz
    Bit depth                                :  bit0
    Compression mode                         : Lossy
    Stream size                              : 105 KiB (2%)
    Language                                 : Chinese (TW)

     


    • 已編輯 Mike Luis 2011年12月1日 上午 07:46
    2011年12月1日 上午 07:32
  • 不知道你怎麼樣抓取.asf的檔案的因為這是串流的格式檔案,所以都需要找到真正的載點才有辦法順利撥放

    就像是.asf or .asx只是播放清單而已真正的資料還是要從Server上面讀取下來,所以不敢確定你的待轉檔案是否完整


    小白技術沒關係 金錢的力量 決定服務的高低
    2011年12月1日 上午 09:28
  • HI:
    asf檔案有多大?只有幾KB的話,請用記事本開啟,內容貼出來

    謝謝

    2011年12月1日 上午 11:23